#TITLE:Adrenaline;
#SUBTITLE:;
#ARTIST:Buga Kingz;
#TITLETRANSLIT:;
#SUBTITLETRANSLIT:;
#ARTISTTRANSLIT:;
#CREDIT:;
#BANNER:Adrenaline_logo.jpg;
#BACKGROUND:Adrenaline_bg.jpg;
#LYRICSPATH:;
#CDTITLE:Lan.png;
#MUSIC:Adrenaline.mp3;
#OFFSET:-0.020;
#SAMPLESTART:100.000;
#SAMPLELENGTH:12.000;
#SELECTABLE:YES;
#BPMS:0.000=116.000;
#STOPS:;
#BGCHANGES:;
// cache tags:
#FIRSTBEAT:4.250;
#LASTBEAT:228.750;
#SONGFILENAME:Songs/lan sky/Adrenaline/Adrenaline.sm;
#HASMUSIC:1;
#HASBANNER:1;
#MUSICLENGTH:119.527;
// end cache tags

//---------------dance-single - sky----------------
#NOTES:
     dance-single:
     sky:
     Hard:
     9:
     0.816,0.789,0.728,0.075,1.000,587.000,87.000,9.000,0.000,3.000:

0000
0000
0000
0000
,
0000
0100
0000
0010
0000
1000
0000
0000
0000
1000
0000
0000
0000
1000
0000
0000
,
0000
0001
0000
0100
0000
0010
0000
0100
0000
0001
0000
1000
0010
0100
0000
0000
,
0000
0000
0000
0010
0000
0100
0000
0000
0000
1000
0000
0000
0000
0010
0000
0000
,
0000
0100
0000
0001
0000
1000
0000
0010
0000
0100
0000
0010
0100
0001
0000
0000
,
0000
0000
0000
0001
0000
0100
0000
0000
0000
0100
0000
0000
0000
0100
0000
0000
,
0000
1000
0000
0010
0000
0100
0000
0001
0000
0010
0000
1000
0100
0001
0000
0000
,
0000
0010
0000
0100
0000
0001
0000
0000
0000
0000
0000
0000
0000
0000
0000
0000
,
0000
0001
0000
0010
0000
0100
0000
0010
0000
1000
0000
0100
0000
0000
0000
0000
,
0010
0000
0001
0000
1000
0001
0100
0010
0000
0000
0100
0000
0000
0000
0010
0000
,
0000
0000
0000
0000
0100
0001
0010
1000
0000
0000
0100
0000
0000
0000
0100
0000
,
0000
0000
0010
0000
0010
1000
0001
0100
0000
0000
0001
0000
0000
0000
0001
0000
,
0000
0000
0010
0001
0100
1000
0010
0002
0000
0000
0010
0100
0010
1000
0100
0010
,
1003
0100
0010
1000
0100
0000
1000
0000
0011
0000
0100
0000
1000
0000
0001
0000
,
1100
0000
0000
0001
0010
0100
0010
1000
0101
0000
0010
0000
0100
0000
0001
0000
,
0110
0000
0001
1000
0010
0001
0100
0001
1010
0000
0100
0000
1000
0000
0010
0000
,
1001
0000
0000
0100
0001
0010
1000
0100
2001
0000
0010
0000
0001
0100
0010
0001
,
3100
0000
0000
1000
0100
0001
0010
0100
1010
0000
0000
0001
0100
0000
0010
0000
,
1100
0000
0000
0100
0010
0001
0100
1000
0110
0000
0001
0000
1000
0000
0100
0000
,
0011
0000
0000
0100
0010
1000
0100
0010
0101
0000
0010
0000
1000
0000
0010
0000
,
1100
0000
0000
0001
0010
0100
0001
1000
0120
0000
0001
0000
1000
0100
0001
1000
,
0130
0001
1000
0100
0010
0001
0100
1000
0110
0000
0001
0000
1000
0000
0010
0000
,
1100
0000
0000
0010
0001
0100
0010
1000
0101
0000
0010
0000
0001
0000
1000
0000
,
0100
0000
0000
0001
0100
1000
0010
0001
0110
0000
1000
0000
0001
0000
0010
0000
,
0101
0000
0000
1000
0100
0010
0001
0100
1002
0000
0000
0100
0010
0100
1000
0100
,
0013
1000
0100
0001
0010
1000
0100
0010
1001
0000
0000
0000
0010
0100
0001
1000
,
0110
0000
0000
0000
0001
0100
0010
1000
0101
0000
0000
0001
0100
0010
0100
1000
,
0011
0000
0000
0010
0001
0100
0010
0001
1010
0000
0000
0000
0100
0010
1000
0001
,
0110
0000
0000
0000
1000
0001
0010
0100
2001
0000
0000
0010
0100
0001
0010
0100
,
3001
0000
0000
0010
0100
0001
1000
0100
0011
0000
0000
0000
0010
0100
0001
1000
,
0110
0000
0000
0000
0100
0010
0001
0100
1010
0000
0000
0100
0001
0000
0100
1000
,
0011
0000
0000
0001
0100
0010
1000
0010
0101
0000
0000
0000
0100
0001
0010
1000
,
0110
0000
0000
0000
1000
0010
0001
0100
1020
0000
0000
1000
0100
0001
0100
1000
,
0031
0000
0000
0001
0110
1000
0100
0001
0110
0000
1000
0000
0110
0001
0100
1000
,
0011
0000
0100
0000
0010
1000
0001
0010
1100
0000
0000
0001
0010
1000
0001
0100
,
1010
0000
0010
0100
0011
1000
0100
1000
0011
0000
0100
0000
0011
1000
0100
0010
,
1001
0000
0100
0000
0010
0001
1000
0100
0021
0000
0000
0100
1000
0000
0001
0100
,
1030
0000
0010
0100
1010
0001
0100
0001
1010
0000
0100
0000
1010
0001
0010
0100
,
1001
0000
0010
0000
0100
0001
1000
0010
0101
0000
0010
0100
0001
1000
0001
0010
,
1100
0000
0010
1000
0100
0001
1000
0100
1010
0000
0100
0000
0001
1000
0010
0100
,
1001
0000
0010
0000
0001
0100
1000
0001
0110
0000
1000
0010
0001
0100
1000
0010
,
0101
0000
0010
1000
0001
0100
0010
0001
1100
0000
0010
0000
1000
0001
0100
0010
,
1001
0000
0200
0000
0001
1000
0010
0001
1010
0000
0010
0001
1300
0000
0001
0010
,
1100
0000
0010
0100
0001
1000
0010
1000
0101
0000
0010
0000
0001
0100
1000
0010
,
1001
0000
0100
0000
0010
1000
0100
0001
1010
0000
0001
0010
1000
0100
1000
0001
,
0110
0000
0010
0100
0001
1000
0100
0010
0101
0000
0010
0000
1000
0100
0001
0010
,
1100
0000
0001
0000
1000
0010
0100
1000
0011
0000
0100
0010
1000
0010
0100
0001
,
1010
0000
0001
0100
1000
0010
0001
1000
0110
0000
0001
0000
0100
1000
0010
0001
,
1010
0000
0200
0000
1000
0001
0010
1000
0011
0000
0010
1000
0001
0010
1000
0010
,
1301
0000
0100
0010
1000
0100
0001
0100
1010
0000
0001
0000
0100
0000
1000
0000
,
0110
0000
0001
0000
0100
1000
0010
0100
1010
0000
0001
0000
0100
0000
0001
0000
,
1010
0000
0000
0100
0010
1000
0100
0001
0110
0000
1000
0000
0100
0000
0010
0000
,
0101
0000
0000
0000
0100
0010
0100
1000
0011
0000
0100
0000
0010
0100
1000
0001
,
0110
0000
0001
0100
0010
0100
1000
0010
1100
0000
0010
0000
0100
0000
1000
0000
,
0011
0000
0000
0000
0100
0010
0100
1000
0110
0000
0001
0000
0100
0000
0001
0000
,
1010
0000
0000
0100
0001
0010
1000
0100
0011
0000
1000
0000
0100
0000
0001
0000
,
0110
0000
0000
0000
1000
0010
0100
0001
1010
0000
0001
0000
0100
0010
0100
0001
,
1010
0100
0010
0001
0000
0000
0000
0000
0000
0000
0000
0000
0000
0000
0000
0000
;
